#TITLE:Jingle Bells;
#SUBTITLE:~Keidancer original~;
#ARTIST:BoUnC3;
#TITLETRANSLIT:;
#SUBTITLETRANSLIT:;
#ARTISTTRANSLIT:;
#CREDIT:;
#BANNER:jingle bellsbanner.png;
#BACKGROUND:jingle bellsbg.png;
#LYRICSPATH:;
#CDTITLE:keidancer.png;
#MUSIC:jingle bells.mp3;
#OFFSET:-0.040;
#SAMPLESTART:36.390;
#SAMPLELENGTH:18.000;
#SELECTABLE:YES;
#BPMS:0.000=157.020;
#STOPS:;
#BGCHANGES:;
// cache tags:
#FIRSTBEAT:16.000;
#LASTBEAT:443.750;
#SONGFILENAME:Songs/Chilean Keyboard Megapack 3/(keidancer) Jingle Bells/jingle bells.sm;
#HASMUSIC:1;
#HASBANNER:1;
#MUSICLENGTH:169.743;
// end cache tags

//---------------dance-single - ----------------
#NOTES:
     dance-single:
     :
     Challenge:
     11:
     1.000,1.000,1.000,0.106,1.000,1086.000,296.000,18.000,0.000,4.000:
0000
0000
0000
0000
,
0000
0000
0000
0000
,
0000
0000
0000
0000
,
0000
0000
0000
0000
,
1001
0010
0100
0001
0011
0000
0000
0010
,
1001
0100
0010
1000
0100
0000
0000
0000
,
0011
0100
0010
1000
0100
0000
0000
0000
,
0100
0010
1000
0001
0100
0000
0000
0000
,
0001
1000
0010
0100
1001
0000
0000
1000
,
0001
0100
0010
1000
0110
0000
0000
0100
,
1000
0001
0100
0010
1000
0100
0010
0001
,
0101
0000
0010
0000
1000
0000
0100
0000
1000
0000
0010
0100
0010
0000
0000
0000
,
0101
0110
1010
0000
0110
0101
0110
0000
,
0110
0000
0011
0000
1100
0000
0000
0110
1001
0000
0000
0000
0010
0000
0000
0000
,
1100
0110
0011
1001
1100
1001
0011
0110
,
1100
0101
0110
1010
1100
0000
1001
0000
,
0101
0000
0010
1000
0101
0000
0110
0000
1001
0000
0100
0010
1001
0000
0101
0000
,
0110
0000
1000
0001
0110
0000
1001
0000
0101
0000
0000
1000
0110
0000
0000
0000
,
0101
0000
1000
0001
0110
0000
1010
0000
1100
0000
0010
0001
1100
0000
1001
0000
,
0101
0000
0010
0100
1001
0000
0110
0000
1001
0000
0000
0000
0101
0000
0000
0000
,
1000
0100
0010
0001
0100
0010
1000
0100
1000
0010
0100
0001
0010
0100
1000
0001
,
0100
0001
0010
0100
1000
0001
0100
0010
1000
0100
1000
0001
0100
0010
1000
0001
,
0100
0001
0010
0100
1000
0001
0100
0010
1000
0001
0010
0100
1000
0001
1000
0010
,
1000
0100
0010
0001
0100
0010
1000
0100
1000
0100
0010
0100
0010
0001
0100
0010
,
1000
0100
0010
0001
0100
0010
1000
0100
1000
0001
0100
0010
1000
0100
0010
0001
,
0100
0010
1000
0100
1000
0001
0100
0010
1000
0001
0100
0010
1000
0100
0010
0001
,
0100
0010
1000
0001
0100
0010
1000
0100
1000
0010
0100
0010
0100
0010
1000
0100
,
0010
0001
0010
0001
1000
0100
0010
0001
0100
0000
0000
0000
1010
0000
0000
0000
,
1001
0000
0010
0100
1001
0000
1100
0000
0110
0000
0001
0010
1100
0000
1001
0000
,
0101
0000
0000
0010
1010
0000
0000
0110
1001
0000
0000
0000
0101
0000
0000
0000
,
0001
0100
0010
1000
0100
0010
0001
0100
0010
1000
0100
0010
0001
0100
0010
0100
,
0001
1000
0100
0010
0001
0000
0000
1000
0110
0000
0000
0000
0101
0000
0000
0000
,
0110
0000
1000
0001
0110
0000
1010
0000
1100
0000
0010
0001
1100
0000
1001
0000
,
0101
0000
0010
1000
0101
0000
0000
0110
1001
0000
0000
0000
0110
0000
0000
0000
,
1100
0000
0010
0001
0101
0000
0110
0000
1010
0000
0010
1000
1100
0000
0110
0000
,
0011
0000
0110
0000
1100
0000
0000
0110
1001
0000
0000
0000
0101
0000
0000
0000
,
1100
0000
0110
0000
0101
0000
0110
0000
1010
0000
0000
0000
1100
0000
0110
0001
,
0110
0000
1100
0000
0110
0000
0101
0000
1100
0000
0000
0000
0011
0000
0110
1000
,
0110
0011
1100
1001
0110
1000
0001
0100
,
0110
1010
0110
0101
1001
0010
1100
0010
,
0101
0000
0110
0000
1100
0000
0110
0000
0101
0000
0100
0000
0010
0000
0110
1000
,
0110
0000
0101
0000
0110
0000
1100
0000
0101
0000
0010
0000
1000
0000
0101
1000
,
0101
0000
0110
0000
1100
0000
0110
0001
0110
0000
1100
0000
0101
0000
0010
1000
,
0101
0110
1010
0110
1001
0101
0110
1000
,
0101
0010
1100
0001
0110
1000
1100
0010
,
0101
1000
0110
0001
0101
0010
1001
1001
,
1001
0010
1100
0001
0110
1000
0110
0001
,
1100
0000
0010
0000
0101
0000
1000
0000
0011
0000
1000
0000
0101
0000
0010
1000
,
0100
0000
1000
0010
0101
0000
0110
0000
1010
0000
1000
0001
0110
0000
1010
0000
,
0101
0000
0010
0100
1001
0000
0110
0000
1010
0000
1000
0001
0110
0000
1100
0000
,
0110
0000
0010
0001
1100
0000
1001
0000
0101
0000
0010
1000
0101
0000
0110
0000
,
1001
0000
0000
0000
1001
0000
0000
0000
0110
1000
0001
1000
0001
1000
0001
1000
,
0110
0000
1000
0100
0011
1000
0100
0010
0001
0100
0010
0100
1001
0100
0010
1000
,
0100
0010
0001
0100
1010
0001
0100
0010
1000
0100
0010
0001
1100
0010
0001
0100
,
0010
1000
0001
0100
1010
0001
0100
0010
1000
0100
0010
0001
1100
0010
0001
0100
,
0010
1000
0100
0010
0101
0010
1000
0001
0010
0100
1000
0001
0101
0010
1000
0100
,
0010
0001
0100
0010
1010
0001
0100
0010
1000
0100
0010
0001
0101
0010
1000
0100
,
0010
0001
0100
0010
1010
0001
0100
0010
1000
0100
0010
0001
0011
1000
0100
0010
,
0001
0100
0010
1000
0101
0010
1000
0100
0010
0001
0100
0010
1100
0010
0001
1000
,
0001
0000
1000
0000
0001
0000
1000
0000
0001
0000
1000
0000
0001
0000
1000
0000
0001
0000
1000
0000
0001
0000
1000
0000
0001
0000
1000
0000
0001
0000
1000
0000
0001
0000
1000
0000
0001
0000
1000
0000
0001
0000
1000
0000
0000
0100
0000
0000
,
1000
0000
0001
0000
0100
0000
0010
0000
1000
0000
0000
0000
0000
0000
0110
0001
,
0110
1000
0100
0010
0001
0000
0000
0010
,
1001
0100
0010
1000
0100
0010
0001
1000
,
0100
0100
0010
0001
0100
0000
0010
0000
,
1001
0000
0010
0000
0100
0000
0001
0000
0010
0000
0000
0000
0000
0000
0110
1000
,
0110
0001
0100
0010
1000
0000
0010
0101
,
0010
1000
0100
0010
0001
1000
0100
0010
,
0001
0001
0100
0010
1000
0000
0101
0000
,
2010
0000
0001
0000
3220
0000
1300
0100
,
0000
1030
0100
0010
0022
0000
0033
0000
,
0102
0000
1003
0000
0220
0000
1300
0001
,
0030
0010
1000
0100
2200
3300
0110
0000
,
0012
0000
0000
0000
1000
0000
0000
0003
0220
0000
0000
0000
1300
0000
0100
0000
,
0000
0031
0010
0100
1100
0000
1002
0000
,
0010
0000
0000
0000
1000
0000
0000
0100
1000
0000
0010
0000
0100
0000
0010
0000
,
1000
0100
0010
1000
0013
0000
1100
0000
,
2002
0000
0000
0000
,
3003
0000
0000
0000
1000
0001
1000
0001
1000
0001
0110
0000
0010
0010
0010
0000
,
1001
0000
0010
0100
1001
0000
0101
0000
0110
0000
0010
1000
0101
0000
1001
0000
,
1100
0000
0000
0010
1001
0000
0000
0010
1100
0000
0000
0000
0110
0000
0000
0000
,
0001
0010
0100
1000
0001
0100
0010
1000
0100
1000
0001
0100
0010
1000
0100
0010
,
0001
0100
0001
1000
0100
0010
0001
0100
0010
0000
0000
0000
1001
0000
0000
0000
,
0101
0000
0010
1000
0101
0000
1001
0000
1100
0000
0010
0001
1100
0000
0110
0000
,
0011
0000
0000
0010
1001
0000
0000
0010
1100
0000
0000
0000
1001
0000
0101
0000
,
1001
0000
1100
0000
1001
0000
0010
0001
1100
0000
1001
0000
0101
0000
0000
0010
,
1100
0000
0010
0001
1100
0000
0000
0010
1001
0000
0000
0000
0110
0000
0000
0000
,
1000
0100
0010
0001
0100
0010
1000
0100
1000
0001
0100
0010
1000
0001
0010
0001
,
1000
0010
1000
0100
0010
0001
0100
0010
1000
0001
0010
0100
1000
0001
0100
0010
,
1000
0001
0010
0100
1000
0001
0100
0010
1000
0100
1000
0001
0100
0010
1000
0100
,
0010
0001
0100
0010
1000
0001
0010
0100
1000
0001
0100
0010
1000
0001
0010
0100
,
1000
0001
0100
0010
1000
0100
1000
0001
0100
0010
1000
0001
0010
0100
1000
0001
,
0100
0010
1000
0001
0010
0100
1000
0001
0100
0010
1000
0001
0010
0100
1000
0001
,
0100
0010
1000
0001
0100
0001
1000
0100
0010
0001
0010
0100
1000
0001
0010
0100
,
1000
0001
0100
0010
1000
0010
0100
0001
0010
0000
0000
0000
1100
0000
0000
0000
,
1001
0000
0010
0100
1001
0000
1100
0000
0110
0000
0010
0001
1100
0000
0110
0000
,
0011
0000
0000
0010
1100
0000
0000
0010
0101
0000
0000
0000
0110
0000
0000
0000
,
0110
0000
1010
0000
0101
0000
0010
1000
0101
0000
0110
0000
1100
0000
0110
0000
,
0011
0110
1100
0101
0110
0000
1001
0000
,
0110
0000
1000
0001
0110
0000
1010
0000
0101
0000
0010
1000
0101
0000
1001
0000
,
1100
0000
0000
0010
0101
0000
0000
0010
1100
0000
0000
0000
1001
0000
0000
0000
,
0011
0000
0110
0000
1100
0000
0010
0001
1100
0000
0110
0000
0101
0000
0010
0000
,
1100
0000
0110
0000
0011
0000
0101
0000
0110
0000
1000
0000
0101
0000
1000
0100
,
0010
0001
1000
0100
0010
0001
0100
0010
1000
0001
0100
0010
1000
0001
0100
0010
,
1000
0100
0010
0001
0100
0010
1000
0100
0010
0001
0100
0010
1000
0100
0010
0001
,
0100
0001
1000
0100
0010
0001
0100
0010
1000
0001
0010
0100
1000
0001
0100
0001
,
1000
0100
0010
0001
0100
0010
1000
0001
0010
0100
1000
0001
0010
0100
1000
0001
,
0101
0010
1000
0100
0010
0001
0100
0010
1000
0100
1000
0001
0100
0001
1000
0100
,
0010
0001
0100
0010
1000
0001
0010
0001
1000
0100
0010
0001
0100
0010
1000
0100
,
0010
0001
0100
0001
1000
0100
0010
0001
0100
0010
1000
0001
0100
0010
1000
0001
,
1000
0001
1000
0001
1000
0001
1000
0001
1000
0001
1000
0001
1000
0001
1000
0001
1000
0001
1000
0001
1000
0001
1000
0000
,
0220
0000
0000
0000
0000
0000
0000
0000
0000
0000
0000
0000
0000
0000
0000
0330
;
